osu file format v14

[General]
AudioFilename: hoooj.mp3
AudioLeadIn: 1500
PreviewTime: 159108
Countdown: 0
SampleSet: Soft
StackLeniency: 0.7
Mode: 0
LetterboxInBreaks: 0
WidescreenStoryboard: 1

[Editor]
Bookmarks: 101266,328317
DistanceSpacing: 0.6
BeatDivisor: 4
GridSize: 4
TimelineZoom: 2

[Metadata]
Title:lastendconductor
TitleUnicode:lastendconductor
Artist:zts
ArtistUnicode:zts
Creator:EvilElvis
Version:Insane
Source:うみねこのなく頃に散
Tags:visual novel marathon Ange Ushiromiya 07th Expansion ep8 Umineko no Naku Koro ni Chiru
BeatmapID:738959
BeatmapSetID:333965

[Difficulty]
HPDrainRate:7
CircleSize:4
OverallDifficulty:7
ApproachRate:8
SliderMultiplier:1.6
SliderTickRate:1

[Events]
//Background and Video events
0,0,"bgasd.jpg",0,0
//Break Periods
2,325063,325840
//Storyboard Layer 0 (Background)
//Storyboard Layer 1 (Fail)
//Storyboard Layer 2 (Pass)
//Storyboard Layer 3 (Foreground)
//Storyboard Sound Samples

[TimingPoints]
7166,431.654676258993,4,2,1,70,1,0
7381,-133.333333333333,4,2,1,40,0,0
13424,-133.333333333333,4,2,1,70,0,0
13532,-133.333333333333,4,2,1,55,0,0
13640,-133.333333333333,4,2,1,40,0,0
20331,-133.333333333333,4,2,1,70,0,0
20439,-133.333333333333,4,2,1,55,0,0
20547,-133.333333333333,4,2,1,40,0,0
20978,-100,4,2,1,70,0,0
21086,-100,4,2,1,50,0,0
28964,-100,4,2,1,30,0,0
29072,-100,4,2,1,50,0,0
29612,-100,4,2,1,40,0,0
29719,-100,4,2,1,50,0,0
30691,-100,4,2,1,30,0,0
30799,-100,4,2,1,50,0,0
31338,-100,4,2,1,40,0,0
31446,-100,4,2,1,50,0,0
33712,-76.9230769230769,4,2,1,70,0,1
34144,-76.9230769230769,4,2,1,60,0,0
34791,-100,4,2,1,70,0,0
34899,-100,4,2,1,50,0,0
47525,-76.9230769230769,4,2,1,70,0,1
48389,-76.9230769230769,4,2,1,70,0,0
48604,-100,4,2,1,70,0,0
48712,-100,4,2,1,60,0,0
61770,-76.9230769230769,4,2,1,80,0,1
61878,-100,4,2,1,70,0,1
62094,-100,4,2,1,70,0,0
62417,-100,4,2,1,70,0,0
62525,-100,4,2,1,60,0,0
88317,-100,4,2,1,60,0,1
90043,-100,4,2,1,60,0,0
115942,-76.9230769230769,4,2,1,80,0,1
116050,-76.9230769230769,4,2,1,60,0,0
116482,-76.9230769230769,4,2,1,55,0,0
116806,-76.9230769230769,4,2,1,50,0,0
117130,-76.9230769230769,4,2,1,45,0,0
117453,-76.9230769230769,4,2,1,40,0,0
117669,-200,4,2,1,70,0,1
117777,-200,4,2,2,40,0,0
131482,-200,4,2,1,60,0,0
131590,-200,4,2,1,50,0,0
145295,-200,4,2,1,70,0,0
145403,-200,4,2,1,45,0,0
156086,-100,4,2,1,70,0,0
157381,-200,4,2,1,70,0,0
158676,-76.9230769230769,4,2,1,80,0,1
158784,-200,4,2,1,70,0,1
158892,-200,4,2,1,70,0,0
159108,-100,4,2,2,60,0,1
172489,-76.9230769230769,4,2,1,80,0,0
172921,-100,4,2,2,60,0,1
185007,-100,4,2,2,60,0,0
186302,-100,4,2,2,80,0,1
186410,-100,4,2,2,50,0,0
186734,-100,4,2,2,80,0,0
186842,-100,4,2,2,50,0,0
197094,-100,4,2,1,50,0,0
199899,-76.9230769230769,4,2,1,80,0,1
200115,-100,4,2,1,70,0,0
200547,-100,4,2,1,60,0,0
212633,-100,4,2,1,60,0,1
214360,-100,4,2,1,60,0,0
214576,-100,4,2,1,80,0,0
215007,-100,4,2,1,60,0,0
215439,-100,4,2,1,40,0,0
215871,-100,4,2,1,20,0,0
216302,-100,4,2,1,80,0,0
216734,-100,4,2,1,60,0,0
217166,-100,4,2,1,40,0,0
217597,-100,4,2,1,20,0,0
218029,-100,4,2,1,70,0,0
218460,-100,4,2,1,60,0,0
218892,-100,4,2,1,40,0,0
219324,-100,4,2,1,20,0,0
219755,-100,4,2,1,70,0,0
220187,-100,4,2,1,60,0,0
220619,-100,4,2,1,40,0,0
221050,-100,4,2,1,20,0,0
221482,-100,4,2,1,80,0,0
221914,-100,4,2,1,60,0,0
222345,-100,4,2,1,40,0,0
222777,-100,4,2,1,20,0,0
223209,-100,4,2,1,70,0,0
223640,-100,4,2,1,60,0,0
224072,-100,4,2,1,40,0,0
224504,-100,4,2,1,20,0,0
224935,-100,4,2,1,60,0,0
225367,-100,4,2,1,40,0,0
225799,-100,4,2,1,60,0,0
226230,-100,4,2,1,40,0,0
226446,-200,4,2,1,50,0,0
227525,-200,4,2,1,80,0,1
227741,-200,4,2,1,40,0,0
234648,-100,4,2,1,70,0,1
234863,-100,4,2,1,70,0,0
235079,-166.666666666667,4,2,1,50,0,0
241122,-76.9230769230769,4,2,1,70,0,1
241770,-76.9230769230769,4,2,1,70,0,0
241986,-133.333333333333,4,2,1,55,0,0
255583,-100,4,2,1,65,0,0
256014,-166.666666666667,4,2,1,60,0,0
266590,-200,4,2,1,70,0,0
271770,-100,4,2,1,70,0,0
272417,-76.9230769230769,4,2,1,70,0,0
272633,-50,4,2,1,70,0,1
273065,-90.9090909090909,4,1,2,70,0,0
273281,-90.9090909090909,4,1,2,60,0,1
285367,-166.666666666667,4,1,1,70,0,0
286878,-90.9090909090909,4,1,2,70,0,1
287094,-90.9090909090909,4,1,2,60,0,1
300043,-66.6666666666667,4,2,2,80,0,0
300151,-66.6666666666667,4,2,2,60,0,0
300691,-100,4,1,2,60,0,1
313856,-76.9230769230769,4,2,1,80,0,0
314072,-100,4,1,2,60,0,0
314504,-100,4,1,2,60,0,1
324863,-100,4,1,2,60,0,0
327669,-76.9230769230769,4,2,1,80,0,1
327777,-76.9230769230769,4,2,1,60,0,1
327885,-76.9230769230769,4,2,1,60,0,0
328317,-76.9230769230769,4,2,1,80,0,1
328424,-76.9230769230769,4,2,1,60,0,0

[Colours]
Combo1 : 255,94,55
Combo2 : 173,255,95
Combo3 : 255,88,100
Combo4 : 17,254,176

[HitObjects]
54,81,7165,5,4,1:0:0:0:
54,81,7489,1,0,0:0:0:0:
54,81,7597,1,0,1:0:0:0:
130,94,7813,1,0,0:0:0:0:
130,94,7921,1,0,0:0:0:0:
130,94,8029,1,0,1:0:0:0:
207,105,8245,1,0,0:0:0:0:
284,97,8460,2,0,L|274:206,1,90.0000034332277,8|0,1:0|0:0,0:0:0:0:
275,186,8892,6,0,L|212:181,1,60.0000022888184,0|0,1:0|0:0,0:0:0:0:
137,178,9324,1,0,1:0:0:0:
66,210,9540,1,0,0:0:0:0:
66,210,9648,1,0,1:0:0:0:
66,210,9755,1,0,1:0:0:0:
96,281,9971,1,2,0:0:0:0:
169,255,10187,1,8,1:0:0:0:
243,230,10403,1,0,0:0:0:0:
328,319,10619,5,0,1:0:0:0:
328,319,10942,1,0,0:0:0:0:
328,319,11050,1,0,1:0:0:0:
399,286,11266,1,0,0:0:0:0:
399,286,11374,1,0,0:0:0:0:
399,286,11482,1,0,1:0:0:0:
467,248,11698,1,0,0:0:0:0:
408,196,11914,2,0,L|424:103,1,90.0000034332277,8|0,1:0|0:0,0:0:0:0:
423,107,12345,6,0,L|353:93,1,60.0000022888184,0|0,1:0|0:0,0:0:0:0:
310,38,12777,2,0,L|251:49,1,60.0000022888184,0|0,1:0|0:0,0:0:0:0:
251,49,13101,1,0,1:0:0:0:
251,49,13209,1,0,1:0:0:0:
24,98,13424,1,4,0:0:0:0:
59,90,13532,1,0,0:0:0:0:
94,81,13640,1,8,1:2:0:0:
128,71,13748,1,2,0:0:0:0:
129,107,13856,1,2,0:0:0:0:
125,142,13964,1,2,0:0:0:0:
131,177,14072,5,0,1:0:0:0:
131,177,14396,1,0,0:0:0:0:
131,177,14504,1,0,1:0:0:0:
213,191,14719,1,0,0:0:0:0:
213,191,14827,1,0,0:0:0:0:
213,191,14935,1,0,1:0:0:0:
304,210,15151,1,0,0:0:0:0:
304,210,15259,1,0,0:0:0:0:
304,210,15367,2,0,L|396:193,1,90.0000034332277,8|0,1:0|0:0,0:0:0:0:
392,193,15799,6,0,L|403:262,1,60.0000022888184,0|0,1:0|0:0,0:0:0:0:
335,342,16230,2,0,L|323:282,1,60.0000022888184,0|0,1:0|0:0,0:0:0:0:
416,344,16662,1,0,1:0:0:0:
493,202,16878,1,2,0:0:0:0:
493,202,16986,1,0,0:0:0:0:
493,202,17094,2,0,L|476:100,1,90.0000034332277,8|0,1:0|0:0,0:0:0:0:
471,77,17525,5,0,1:0:0:0:
471,77,17849,1,0,0:0:0:0:
471,77,17957,1,0,1:0:0:0:
394,107,18173,1,0,0:0:0:0:
394,107,18281,1,0,0:0:0:0:
394,107,18389,1,0,1:0:0:0:
314,138,18604,1,0,0:0:0:0:
201,51,18820,2,0,L|98:82,1,90.0000034332277,8|0,1:0|0:0,0:0:0:0:
114,76,19252,6,0,L|133:142,1,60.0000022888184,0|0,1:0|0:0,0:0:0:0:
203,177,19683,1,0,1:0:0:0:
128,216,19899,1,0,0:0:0:0:
128,216,20007,1,0,1:0:0:0:
128,216,20115,1,0,1:0:0:0:
24,344,20331,1,4,0:0:0:0:
64,334,20439,1,0,0:0:0:0:
104,324,20547,1,8,1:2:0:0:
144,311,20655,1,0,1:0:0:0:
184,301,20763,1,0,1:0:0:0:
224,291,20871,1,0,1:0:0:0:
259,279,20978,6,0,L|348:291,1,80,4|0,1:0|0:0,0:0:0:0:
442,346,21410,2,0,B|454:279|437:214,1,120,8|0,1:0|1:0,0:0:0:0:
439,226,21842,2,0,L|360:216,1,80,0|0,1:0|1:0,0:0:0:0:
360,216,22166,1,0,1:0:0:0:
360,216,22273,1,8,1:0:0:0:
276,209,22489,1,0,0:0:0:0:
136,129,22705,6,0,B|178:133|218:140,1,80,0|0,1:0|0:0,0:0:0:0:
312,59,23137,2,0,B|243:56|176:46,1,120,8|0,1:0|1:0,0:0:0:0:
175,21,23568,1,0,1:0:0:0:
45,23,23784,1,0,1:0:0:0:
34,49,23892,1,0,0:0:0:0:
29,76,24000,1,8,1:0:0:0:
30,103,24108,1,2,0:0:0:0:
35,130,24216,1,0,1:0:0:0:
46,155,24324,1,2,0:0:0:0:
60,179,24432,6,0,B|103:192|141:215,1,80,0|0,1:0|0:0,0:0:0:0:
195,164,24863,2,0,B|173:235|184:309,1,120,8|0,1:0|0:0,0:0:0:0:
181,282,25295,2,0,B|225:289|266:304,1,80,0|0,1:0|0:0,0:0:0:0:
258,301,25619,1,0,0:0:0:0:
258,301,25727,1,8,1:0:0:0:
392,352,25942,1,0,0:0:0:0:
481,259,26158,6,0,B|440:260|401:269,1,80,0|0,1:0|0:0,0:0:0:0:
308,158,26590,2,0,B|345:184|389:189|428:176,1,120,8|8,1:0|1:0,0:0:0:0:
422,177,27022,2,0,L|434:90,1,80,0|8,0:0|1:0,0:0:0:0:
423,63,27345,1,0,0:0:0:0:
391,45,27453,1,8,1:2:0:0:
354,46,27561,1,8,0:1:0:0:
320,58,27669,1,0,0:0:0:0:
284,64,27777,1,2,0:0:0:0:
241,59,27885,6,0,B|191:58|144:47,1,80,0|2,1:0|0:0,0:0:0:0:
165,149,28317,2,0,B|99:136|34:138,1,120,8|0,1:0|0:0,0:0:0:0:
45,137,28748,2,0,L|39:220,1,80,0|2,1:0|0:1,0:0:0:0:
39,217,29072,1,0,0:0:0:0:
39,217,29180,1,8,1:0:0:0:
131,327,29396,1,0,0:1:0:0:
255,235,29612,6,0,B|204:227|154:228,1,80,2|2,1:0|0:0,0:0:0:0:
274,325,30043,2,2,B|339:333|402:326,1,120,8|0,1:0|0:1,1:0:0:0:
407,351,30475,1,0,1:0:0:0:
485,275,30691,1,2,0:1:0:0:
468,242,30799,1,0,0:0:0:0:
435,226,30907,1,8,1:0:0:0:
399,219,31014,1,2,0:0:0:0:
363,227,31122,1,0,0:0:0:0:
378,194,31230,1,2,0:0:0:0:
390,160,31338,6,0,B|399:112|392:64,1,80,2|2,1:0|0:0,0:0:0:0:
246,35,31770,2,2,B|242:102|250:167,1,120,8|0,1:0|0:0,1:0:0:0:
248,154,32201,2,0,B|203:160|160:169,1,80,0|2,1:0|0:1,0:0:0:0:
169,167,32525,1,0,0:0:0:0:
169,167,32633,1,8,1:0:0:0:
21,109,32849,1,2,0:0:0:0:
8,211,33065,2,0,B|52:202|96:199,1,80,2|2,1:0|0:0,0:0:0:0:
87,199,33389,1,0,0:0:0:0:
87,199,33496,1,8,1:0:0:0:
286,338,33712,6,2,B|361:322|415:266|433:198,1,207.999990478516,6|4,1:0|1:2,1:0:0:0:
438,167,34252,1,0,0:0:0:0:
427,132,34360,1,8,1:0:0:0:
399,107,34468,1,0,1:0:0:0:
362,101,34576,1,0,0:0:0:0:
390,79,34683,1,8,0:1:0:0:
409,58,34791,6,0,B|389:37|363:25|337:22,1,80,6|0,1:0|0:0,0:0:0:0:
311,18,35115,1,0,0:0:0:0:
283,25,35223,1,10,1:0:0:0:
188,95,35439,1,2,0:1:0:0:
261,187,35655,1,0,1:0:0:0:
358,122,35871,1,2,0:1:0:0:
358,122,35978,1,0,0:0:0:0:
358,122,36086,1,8,1:0:0:0:
450,198,36302,5,2,0:1:0:0:
419,273,36518,1,0,1:0:0:0:
350,219,36734,1,2,0:1:0:0:
339,297,36950,2,0,B|296:287|254:286,1,80,10|2,1:0|0:1,0:0:0:0:
205,346,37381,2,0,B|143:352|88:318|61:267,1,160,2|10,1:0|1:0,0:0:0:0:
40,193,38029,1,8,1:0:0:0:
113,138,38245,6,0,B|151:121|178:91,1,80,2|2,1:0|0:1,0:0:0:0:
177,91,38568,1,0,0:0:0:0:
177,91,38676,1,8,1:0:0:0:
270,174,38892,1,2,0:1:0:0:
360,89,39108,1,0,1:0:0:0:
261,17,39324,1,2,0:1:0:0:
261,17,39432,1,0,0:0:0:0:
261,17,39540,2,0,B|267:60|268:102,1,80,10|2,1:0|0:1,0:0:0:0:
351,164,39971,5,0,1:0:0:0:
483,176,40187,1,2,0:1:0:0:
505,46,40403,1,10,1:0:0:0:
505,46,40619,1,0,0:0:0:0:
398,101,40835,2,0,L|394:280,1,160,2|10,1:0|1:0,1:0:0:0:
467,314,41482,1,10,1:0:0:0:
305,360,41698,6,0,B|310:314|301:269,1,80,2|0,1:0|0:0,0:0:0:0:
303,280,42022,1,0,0:0:0:0:
303,280,42130,1,10,1:0:0:0:
183,177,42345,1,2,0:1:0:0:
133,324,42561,1,0,1:0:0:0:
203,254,42777,1,2,0:1:0:0:
203,254,42885,1,0,0:0:0:0:
203,254,42993,2,0,L|182:176,1,80,10|0,1:0|0:0,0:0:0:0:
236,93,43424,5,2,1:0:0:0:
166,40,43640,1,0,0:1:0:0:
90,71,43856,1,10,1:0:0:0:
21,23,44072,1,2,0:1:0:0:
5,102,44288,2,0,B|71:96|132:112|184:144,1,160,2|10,1:0|1:0,0:0:0:0:
237,184,44935,1,8,1:0:0:0:
313,102,45151,6,0,B|306:60|311:18,1,80,2|0,1:0|0:1,0:0:0:0:
310,22,45475,1,0,0:0:0:0:
310,22,45583,1,10,1:0:0:0:
404,80,45799,1,2,0:1:0:0:
495,29,46014,1,0,1:0:0:0:
401,184,46230,1,2,0:1:0:0:
401,184,46338,1,0,0:0:0:0:
401,184,46446,2,0,B|442:193|483:193,1,80,8|2,1:0|0:1,0:0:0:0:
397,263,46878,5,2,1:0:0:0:
411,367,47094,1,2,0:1:0:0:
505,296,47309,1,8,1:0:0:0:
306,254,47525,6,0,L|192:285,1,103.999995239258,4|8,1:2|0:0,0:0:0:0:
122,298,47957,1,4,1:2:0:0:
122,298,48173,1,8,1:2:0:0:
75,169,48389,6,0,L|35:158,2,34.6666650797527,2|2|2,0:0|0:0|0:0,0:0:0:0:
75,169,48604,2,0,B|127:146|161:100|172:49,1,160,6|10,1:0|1:0,0:0:0:0:
8,39,49252,1,0,0:1:0:0:
8,39,49360,1,0,0:0:0:0:
8,39,49468,2,0,B|45:60|79:83,1,80,2|0,1:0|0:0,0:0:0:0:
191,177,49899,1,10,1:0:0:0:
254,56,50115,5,2,0:1:0:0:
254,56,50223,1,0,0:0:0:0:
254,56,50331,2,0,B|299:53|342:44,1,80,0|2,1:0|0:1,0:0:0:0:
301,136,50763,1,10,1:0:0:0:
400,219,50978,1,0,0:1:0:0:
323,330,51194,1,2,1:0:0:0:
236,241,51410,1,0,0:1:0:0:
236,241,51518,1,0,0:0:0:0:
236,241,51626,2,0,B|277:229|319:232,1,80,14|8,1:0|1:0,0:0:0:0:
474,280,52058,6,0,B|484:220|475:162|453:111,1,160,2|10,1:0|1:0,1:0:0:0:
401,46,52705,1,2,0:1:0:0:
401,46,52813,1,0,0:0:0:0:
401,46,52921,2,0,B|356:52|312:42,1,80,0|2,1:0|0:1,0:0:0:0:
246,158,53353,1,10,1:0:0:0:
117,64,53568,5,2,0:1:0:0:
117,64,53676,1,0,0:0:0:0:
117,64,53784,2,0,B|162:58|206:68,1,80,2|2,1:0|0:1,0:0:0:0:
38,155,54216,2,0,B|84:141|132:147,1,80,10|0,1:0|0:0,0:0:0:0:
10,277,54648,2,0,B|56:240|112:223|166:225,1,160,2|14,1:0|1:0,0:0:0:0:
263,324,55295,5,10,1:0:0:0:
263,324,55403,1,0,0:0:0:0:
263,324,55511,2,0,L|240:152,1,160,2|10,1:0|1:0,0:0:0:0:
270,62,56158,1,0,0:1:0:0:
270,62,56266,1,0,0:0:0:0:
270,62,56374,2,0,B|310:34|355:20,1,80,2|0,1:0|0:1,0:0:0:0:
445,37,56806,1,10,1:0:0:0:
393,190,57022,5,2,0:1:0:0:
393,190,57130,1,0,0:0:0:0:
393,190,57237,2,0,L|352:107,1,80,0|2,1:0|0:1,0:0:0:0:
403,340,57669,1,10,1:0:0:0:
484,212,57885,1,0,0:1:0:0:
339,265,58101,1,2,1:0:0:0:
488,309,58317,1,0,0:0:0:0:
488,309,58424,1,0,0:0:0:0:
488,309,58532,1,14,1:0:0:0:
287,189,58748,1,8,1:0:0:0:
287,189,58856,1,0,1:0:0:0:
287,189,58964,5,8,1:2:0:0:
244,253,59180,1,8,1:0:0:0:
203,316,59396,1,8,1:2:0:0:
159,244,59612,1,0,1:0:0:0:
151,256,59719,1,8,1:0:0:0:
107,182,59935,1,8,1:2:0:0:
101,195,60043,1,8,1:0:0:0:
33,158,60259,1,8,1:2:0:0:
33,158,60475,1,4,0:0:0:0:
192,175,60691,5,8,1:2:0:0:
358,203,60907,1,8,1:0:0:0:
358,203,61014,1,8,1:0:0:0:
461,79,61230,1,8,1:0:0:0:
461,79,61338,1,12,1:2:0:0:
277,49,61554,1,8,1:2:0:0:
192,175,61770,2,0,B|251:176|303:153|341:115,1,155.999992858887,2|2,1:0|1:2,0:0:0:0:
359,94,62201,1,0,1:0:0:0:
371,59,62309,1,2,1:2:0:0:
384,21,62417,6,2,B|388:105|398:187,1,160,6|8,1:0|1:0,1:0:0:0:
481,251,63065,1,2,0:1:0:0:
481,251,63173,1,0,0:0:0:0:
481,251,63281,2,0,B|438:266|401:291,1,80,2|2,1:0|1:0,0:0:0:0:
374,355,63712,2,0,B|335:331|292:318,1,80,10|2,1:0|0:1,0:0:0:0:
232,229,64144,6,2,B|229:137|210:50,1,160,2|8,1:0|1:0,1:0:0:0:
67,167,64791,1,2,0:1:0:0:
67,167,64899,1,0,0:0:0:0:
67,167,65007,2,0,L|155:156,1,80,2|8,1:0|1:0,0:0:0:0:
336,263,65439,1,10,1:0:0:0:
405,162,65655,1,2,0:1:0:0:
405,162,65763,1,0,0:0:0:0:
405,162,65871,2,0,L|317:173,1,80,2|2,1:0|0:1,0:0:0:0:
149,337,66302,6,2,B|92:339|44:300|29:249,1,160,10|0,1:0|1:0,1:0:0:0:
136,238,66950,1,2,1:0:0:0:
136,238,67058,1,0,0:0:0:0:
136,238,67166,2,0,B|143:196|134:155,1,80,10|2,1:0|0:1,0:0:0:0:
271,23,67597,6,2,B|223:60|204:120|218:174,1,160,2|10,1:0|1:0,1:0:0:0:
305,113,68245,1,2,0:1:0:0:
305,113,68353,1,0,0:0:0:0:
305,113,68460,2,0,L|392:124,1,80,2|10,1:0|1:0,0:0:0:0:
481,298,68892,1,10,1:0:0:0:
335,214,69108,5,2,0:1:0:0:
335,214,69216,1,0,0:0:0:0:
335,214,69324,2,2,B|396:236|460:215|498:169,1,160,2|10,1:0|1:0,1:0:0:0:
276,283,69971,1,2,0:1:0:0:
276,283,70079,1,0,0:0:0:0:
276,283,70187,2,0,B|284:328|280:373,1,80,2|2,1:0|1:0,0:0:0:0:
110,354,70619,2,0,B|108:313|114:274,1,80,10|2,1:0|0:1,0:0:0:0:
245,162,71050,6,0,B|244:109|223:61|189:25,1,120,6|0,1:0|0:0,0:0:0:0:
208,49,71482,2,0,L|120:74,1,80,14|0,1:0|0:0,0:0:0:0:
44,122,71914,1,6,1:0:0:0:
330,135,72130,1,10,1:0:0:0:
330,135,72237,1,0,0:0:0:0:
330,135,72345,2,0,B|375:148|410:178,1,80,14|2,1:0|0:1,0:0:0:0:
473,237,72777,5,6,1:0:0:0:
392,352,72993,1,2,0:1:0:0:
249,325,73209,2,2,B|224:273|225:217|245:169,1,160,14|0,1:0|1:0,1:0:0:0:
334,260,73856,1,2,1:0:0:0:
334,260,73964,1,0,0:0:0:0:
334,260,74072,2,0,L|424:275,1,80,10|2,1:0|0:1,0:0:0:0:
466,103,74504,6,0,L|376:118,1,80,6|0,1:0|0:0,0:0:0:0:
198,43,74935,2,0,L|288:28,1,80,14|0,1:0|0:0,0:0:0:0:
135,151,75367,1,6,1:0:0:0:
49,166,75583,1,10,1:0:0:0:
49,166,75691,1,0,0:0:0:0:
49,166,75799,1,10,1:0:0:0:
76,329,76014,1,2,1:1:0:0:
168,320,76230,6,2,B|148:262|85:232|29:249,1,160,6|10,1:0|1:0,1:0:0:0:
185,209,76878,1,2,0:1:0:0:
185,209,76986,1,0,0:0:0:0:
185,209,77094,2,0,B|224:189|257:163,1,80,2|2,1:0|1:0,0:0:0:0:
313,108,77525,1,10,1:0:0:0:
343,28,77741,1,2,0:1:0:0:
478,230,77957,6,2,B|422:208|392:151|401:95,1,160,2|8,1:0|1:0,1:0:0:0:
350,218,78604,1,2,0:1:0:0:
350,218,78712,1,0,0:0:0:0:
350,218,78820,2,0,B|315:247|296:288,1,80,2|10,1:0|1:0,0:0:0:0:
256,354,79252,1,10,1:0:0:0:
241,199,79468,1,2,0:1:0:0:
241,199,79576,1,0,0:0:0:0:
241,199,79683,6,0,B|209:162|164:143,1,80,2|2,1:0|0:1,0:0:0:0:
178,40,80115,2,2,B|122:51|82:94|70:145,1,160,10|0,1:0|1:0,1:0:0:0:
16,237,80763,1,2,1:0:0:0:
16,237,80871,1,0,0:0:0:0:
16,237,80978,2,0,L|102:254,1,80,10|2,1:0|0:1,0:0:0:0:
230,355,81410,6,2,L|249:186,1,160,2|10,1:0|1:0,1:0:0:0:
317,105,82058,1,2,0:1:0:0:
317,105,82166,1,0,0:0:0:0:
317,105,82273,2,0,B|271:102|227:94,1,80,2|10,1:0|1:0,0:0:0:0:
146,188,82705,1,10,1:0:0:0:
155,15,82921,1,2,0:1:0:0:
340,210,83137,6,2,B|398:221|455:210|502:182,1,160,2|8,1:0|1:0,1:0:0:0:
459,287,83784,1,2,0:1:0:0:
459,287,83892,1,0,0:0:0:0:
459,287,84000,2,0,B|472:329|475:371,1,80,2|2,1:0|1:0,0:0:0:0:
376,341,84432,1,10,1:0:0:0:
376,341,84648,1,2,0:1:0:0:
251,233,84863,6,0,B|261:170|282:112,1,120,6|0,1:0|0:0,0:0:0:0:
188,22,85295,2,0,B|199:61|207:100,1,80,14|0,1:0|0:0,0:0:0:0:
34,160,85727,1,2,1:0:0:0:
126,228,85942,1,2,1:1:0:0:
126,228,86050,1,0,0:0:0:0:
126,228,86158,2,0,B|141:187|147:145,1,80,10|2,1:0|0:1,0:0:0:0:
168,299,86590,6,2,B|129:268|81:259|37:268,1,120,6|0,1:0|0:0,1:0:0:0:
55,265,87022,2,0,B|67:306|70:348,1,80,14|0,1:0|0:0,0:0:0:0:
69,343,87345,1,0,0:0:0:0:
69,343,87453,1,4,1:0:0:0:
252,245,87669,1,10,1:0:0:0:
252,245,87777,1,0,0:0:0:0:
252,245,87885,1,14,1:0:0:0:
54,162,88101,1,2,0:1:0:0:
54,162,88209,1,0,0:0:0:0:
54,162,88317,5,6,1:0:0:0:
125,240,88532,1,4,1:2:0:0:
168,51,88748,5,6,1:0:0:0:
194,177,88964,1,4,1:2:0:0:
360,31,89180,5,6,1:0:0:0:
282,236,89396,1,4,1:2:0:0:
508,30,89612,5,6,1:0:0:0:
508,30,89719,1,0,1:0:0:0:
508,30,89827,1,0,1:0:0:0:
482,185,90043,6,2,B|349:197|385:112|254:122,1,240,6|2,1:0|0:1,1:0:0:0:
185,228,90907,1,2,1:0:0:0:
85,172,91122,1,2,0:1:0:0:
146,34,91338,2,0,B|147:77|158:117,1,80,10|2,1:0|0:1,0:0:0:0:
317,277,91770,6,2,L|139:315,1,160,2|10,1:0|1:0,1:0:0:0:
312,123,92417,1,0,0:0:0:0:
312,123,92525,1,0,0:0:0:0:
312,123,92633,2,0,L|222:144,1,80,2|0,1:0|0:0,0:0:0:0:
340,198,93065,2,0,L|430:177,1,80,10|0,1:0|0:0,0:0:0:0:
433,151,93389,1,0,0:0:0:0:
444,121,93496,6,2,B|516:176|534:274|495:349,1,240,6|2,1:0|0:1,1:0:0:0:
475,316,94252,1,0,0:0:0:0:
448,298,94360,2,0,B|397:273|341:269,1,80,2|2,1:0|0:1,0:0:0:0:
282,343,94791,1,10,1:0:0:0:
282,343,95007,1,2,0:1:0:0:
366,188,95223,6,2,B|380:127|376:68|357:14,1,160,2|10,1:0|1:0,1:0:0:0:
262,64,95871,1,0,0:1:0:0:
262,64,95978,1,0,0:0:0:0:
262,64,96086,2,0,L|254:146,1,80,2|0,1:0|0:0,0:0:0:0:
212,375,96518,2,0,L|204:295,1,80,10|0,1:0|0:0,0:0:0:0:
10,262,96950,6,2,B|148:284|117:208|246:219,1,240,6|2,1:0|0:1,1:0:0:0:
341,296,97813,1,2,1:0:0:0:
435,212,98029,1,2,0:1:0:0:
334,147,98245,2,0,B|290:135|246:134,1,80,10|2,1:0|0:1,0:0:0:0:
319,46,98676,6,0,B|276:86|219:102|166:94,1,160,2|14,1:0|1:0,0:0:0:0:
23,35,99324,1,0,0:0:0:0:
23,35,99432,1,0,0:0:0:0:
23,35,99540,2,0,B|67:30|109:20,1,80,6|0,1:0|0:0,0:0:0:0:
282,189,99971,2,0,B|241:192|203:202,1,80,14|0,1:0|0:0,0:0:0:0:
173,190,100295,1,0,0:0:0:0:
144,176,100403,6,2,B|62:201|22:294|58:371,1,240,6|2,1:0|0:1,1:0:0:0:
270,295,101266,2,2,B|305:230|290:151|235:101|172:89,1,240,2|2,1:0|0:1,1:0:0:0:
162,93,102022,1,0,0:1:0:0:
131,96,102130,6,0,L|145:188,1,80,2|2,1:0|0:1,0:0:0:0:
260,24,102561,1,10,1:0:0:0:
386,199,102777,1,2,0:1:0:0:
386,199,102885,1,0,0:0:0:0:
386,199,102993,2,0,L|398:119,1,80,2|2,1:0|0:1,0:0:0:0:
231,293,103424,1,14,1:0:0:0:
486,362,103640,1,10,1:0:0:0:
288,360,103856,6,2,L|250:182,1,160,6|8,1:0|1:0,1:0:0:0:
170,344,104504,1,2,0:1:0:0:
170,344,104612,1,0,0:0:0:0:
170,344,104719,2,0,B|129:361|85:359,1,80,2|2,1:0|0:1,0:0:0:0:
11,279,105151,1,10,1:0:0:0:
101,204,105367,1,2,0:1:0:0:
347,268,105583,6,0,B|408:258|456:220|482:171,1,160,2|14,1:0|1:0,0:0:0:0:
363,48,106230,1,0,0:0:0:0:
363,48,106338,1,0,0:0:0:0:
363,48,106446,2,0,B|408:49|450:57,1,80,6|0,1:0|0:0,0:0:0:0:
296,146,106878,2,0,L|209:137,1,80,14|0,1:0|0:0,0:0:0:0:
92,69,107309,6,2,B|176:83|229:167|207:247,1,240,6|2,1:0|0:1,1:0:0:0:
7,279,108173,2,2,B|14:222|54:178|105:162,1,160,2|8,1:0|1:0,1:0:0:0:
247,249,108820,5,2,0:1:0:0:
419,184,109036,2,0,B|422:152|416:121|403:95,1,80,2|2,1:0|0:1,0:0:0:0:
318,37,109468,2,0,L|230:24,1,80,10|2,1:0|0:1,0:0:0:0:
56,57,109899,1,6,1:0:0:0:
56,57,110115,1,10,1:0:0:0:
166,125,110331,1,14,1:0:0:0:
343,247,110547,5,4,1:2:0:0:
343,247,110655,1,0,0:0:0:0:
343,247,110763,2,0,B|367:271|382:300|389:330,1,80,6|0,1:0|0:0,0:0:0:0:
202,350,111194,2,2,B|195:286|214:226|250:180,1,160,10|0,1:0|1:0,1:0:0:0:
211,82,111842,1,2,0:1:0:0:
319,120,112058,2,0,B|360:131|402:131,1,80,10|2,1:0|0:1,0:0:0:0:
489,219,112489,6,2,B|502:129|470:44,1,160,2|10,1:0|1:0,1:0:0:0:
276,29,113137,1,2,0:1:0:0:
276,29,113245,1,0,0:0:0:0:
276,29,113353,2,0,B|230:40|184:31,1,80,2|2,1:0|0:1,0:0:0:0:
67,86,113784,1,10,1:0:0:0:
212,131,114000,1,10,1:0:0:0:
212,131,114108,1,0,0:0:0:0:
212,131,114216,6,2,B|156:133|110:168|91:216,1,120,6|0,1:0|0:0,1:0:0:0:
109,184,114648,2,0,L|10:174,1,80,14|0,1:0|0:0,0:0:0:0:
29,176,114971,1,0,0:0:0:0:
29,176,115079,1,6,1:0:0:0:
224,240,115295,1,0,0:0:0:0:
224,240,115403,1,0,0:0:0:0:
224,240,115511,1,6,1:0:0:0:
15,281,115727,1,0,1:0:0:0:
15,281,115835,1,0,1:0:0:0:
15,281,115942,6,0,B|57:271|99:283|129:310,1,103.999995239258,4|8,1:2|1:2,0:0:0:0:
130,332,116266,1,8,1:0:0:0:
263,313,116482,5,8,1:2:0:0:
258,338,116590,1,8,0:0:0:0:
382,301,116806,5,4,1:2:0:0:
392,324,116914,1,8,1:0:0:0:
308,214,117130,5,8,1:2:0:0:
304,240,117237,1,8,1:0:0:0:
213,124,117453,5,8,1:2:0:0:
221,148,117561,1,0,1:0:0:0:
231,170,117669,6,0,L|248:75,2,80,4|2|2,1:0|0:0|0:0,0:0:0:0:
231,170,119180,5,2,0:0:0:0:
308,206,119396,2,0,L|348:225,1,40,2|0,2:0|2:0,1:0:0:0:
423,197,119827,1,2,0:0:0:0:
423,197,120043,1,0,0:0:0:0:
496,253,120259,2,0,B|463:264|441:290|432:320,1,80,2|0,0:0|0:0,0:0:0:0:
278,342,121122,6,0,B|232:345|190:326,2,80,2|2|2,0:0|0:0|0:0,0:0:0:0:
278,342,122633,1,2,0:0:0:0:
337,247,122849,2,0,B|306:195|246:174|192:189,2,160,2|2|2,0:0|0:0|0:0,0:0:0:0:
416,188,125007,5,2,0:0:0:0:
416,188,125439,1,2,0:0:0:0:
416,188,126302,6,0,B|377:140|373:76|399:25,2,160,2|2|2,2:0|0:0|0:0,1:0:0:0:
272,193,128460,2,0,B|240:195|210:205|185:221,2,80,2|2|0,0:0|0:0|0:0,0:0:0:0:
256,192,129755,12,0,131266,1:0:0:0:
252,213,131482,5,4,1:0:0:0:
252,213,131914,1,8,0:0:0:0:
187,257,132129,1,0,0:0:0:0:
187,257,132237,1,2,0:0:0:0:
125,300,132453,1,0,0:0:0:0:
125,300,132561,1,2,0:0:0:0:
59,340,132777,1,8,0:0:0:0:
59,340,133209,5,0,1:0:0:0:
66,247,133424,1,0,1:0:0:0:
0,182,133640,2,0,L|36:165,1,40,8|0,0:0|0:0,0:0:0:0:
85,94,134072,1,2,0:0:0:0:
85,94,134288,1,2,0:0:0:0:
158,142,134504,2,0,L|200:127,1,40,10|2,0:0|0:0,0:0:0:0:
274,169,134935,5,2,0:0:0:0:
274,169,135151,1,2,0:0:0:0:
348,136,135367,1,10,0:0:0:0:
348,136,136230,6,0,L|396:116,1,40,10|2,0:0|0:0,0:0:0:0:
455,88,136662,1,0,1:0:0:0:
321,269,136878,6,0,L|369:249,1,40,2|10,0:0|0:0,0:0:0:0:
428,221,137310,1,0,1:0:0:0:
428,221,137957,5,8,0:0:0:0:
501,258,138173,1,2,0:0:0:0:
430,298,138389,1,0,1:0:0:0:
430,298,138820,5,8,1:2:0:0:
363,266,139036,1,0,0:0:0:0:
363,266,139144,1,2,0:0:0:0:
288,256,139360,1,8,0:1:0:0:
288,256,139468,1,2,0:0:0:0:
219,278,139683,2,0,L|208:327,1,40,8|8,0:0|0:1,0:0:0:0:
24,192,140115,5,8,0:1:0:0:
91,158,140331,1,2,0:0:0:0:
166,159,140547,1,8,0:0:0:0:
232,197,140763,1,2,0:0:0:0:
232,197,140871,1,0,0:0:0:0:
303,231,141086,1,8,0:1:0:0:
303,231,141194,1,2,0:0:0:0:
376,236,141410,1,8,0:0:0:0:
445,206,141626,1,8,0:1:0:0:
474,89,141842,5,8,0:1:0:0:
407,55,142058,1,2,0:0:0:0:
332,56,142274,1,8,0:0:0:0:
266,94,142490,1,0,0:0:0:0:
266,94,142598,1,2,0:0:0:0:
195,128,142813,1,8,0:1:0:0:
195,128,142921,1,2,0:0:0:0:
115,132,143137,1,8,0:0:0:0:
44,103,143353,1,8,0:1:0:0:
135,36,143568,6,0,L|183:47,1,40,8|2,0:1|0:0,0:0:0:0:
374,124,144000,2,0,L|326:135,1,40,8|0,0:0|0:0,0:0:0:0:
335,132,144324,1,2,0:0:0:0:
335,132,144432,1,8,0:1:0:0:
197,198,144648,1,8,0:1:0:0:
308,226,144863,1,12,0:0:0:0:
246,294,145079,1,8,0:1:0:0:
424,360,145295,5,4,1:0:0:0:
424,360,145727,1,8,1:2:0:0:
424,360,146266,1,8,0:0:0:0:
424,360,146374,1,8,0:0:0:0:
260,203,146590,2,0,L|265:153,1,40,8|8,0:0|0:1,0:0:0:0:
175,316,147022,5,0,1:0:0:0:
175,316,147454,1,8,1:2:0:0:
175,316,147993,1,8,0:0:0:0:
175,316,148101,1,8,0:0:0:0:
339,159,148317,1,8,0:0:0:0:
339,159,148748,5,0,1:0:0:0:
339,159,149180,1,8,0:0:0:0:
196,119,149612,1,8,0:0:0:0:
196,119,149720,1,8,0:0:0:0:
196,119,149827,1,0,0:0:0:0:
255,67,150043,2,0,L|256:26,1,40,8|8,0:0|0:1,0:0:0:0:
151,38,150475,5,0,1:0:0:0:
350,86,150691,1,8,0:1:0:0:
153,182,150907,1,8,0:0:0:0:
297,241,151122,1,0,1:0:0:0:
297,241,151230,1,8,0:0:0:0:
215,282,151446,1,8,0:0:0:0:
215,282,151554,1,8,0:1:0:0:
262,366,151770,1,8,0:0:0:0:
262,366,151986,1,8,0:1:0:0:
262,366,152201,5,0,1:0:0:0:
262,366,152633,1,8,1:2:0:0:
262,366,153174,1,8,0:0:0:0:
262,366,153281,1,8,0:0:0:0:
195,205,153496,2,0,L|190:155,1,40,8|8,0:0|0:1,0:0:0:0:
135,304,153928,5,0,1:0:0:0:
135,304,154360,1,8,1:2:0:0:
135,304,154899,1,8,0:0:0:0:
135,304,155007,1,8,0:0:0:0:
338,155,155223,2,0,L|330:103,1,40,8|2,0:0|0:0,0:0:0:0:
267,58,155655,1,0,1:0:0:0:
199,108,155871,1,2,0:0:0:0:
199,108,155978,1,2,0:0:0:0:
199,108,156086,6,2,L|212:276,1,160,8|4,0:0|0:0,1:0:0:0:
377,309,156734,1,2,0:0:0:0:
310,220,156950,1,8,0:0:0:0:
270,359,157166,1,8,0:1:0:0:
270,359,157273,1,8,0:1:0:0:
270,359,157381,6,0,B|196:366|124:357,1,140,4|0,1:0|0:0,0:0:0:0:
130,357,158245,6,0,L|129:318,1,40,,,0:0:0:0:
26,137,158676,6,0,L|41:242,1,103.999995239258,4|0,0:0|0:0,0:0:0:0:
196,112,159108,6,0,L|182:34,1,80,6|2,1:0|0:1,0:0:0:0:
126,174,159540,2,2,B|177:147|232:137|284:142,1,160,10|0,1:0|1:0,1:0:0:0:
346,75,160187,1,0,0:0:0:0:
346,75,160295,1,0,0:0:0:0:
346,75,160403,2,0,B|388:79|428:87,1,80,8|0,1:0|0:0,0:0:0:0:
400,213,160835,6,0,B|445:208|489:200,1,80,0|0,1:0|0:0,0:0:0:0:
289,279,161266,2,2,B|364:279|430:314,1,120,10|0,1:0|0:0,1:0:0:0:
405,302,161698,2,0,B|362:316|327:344,1,80,2|2,1:0|0:1,0:0:0:0:
185,146,162130,2,0,B|212:179|228:217,1,80,10|0,1:0|0:1,0:0:0:0:
194,369,162561,5,2,1:0:0:0:
75,295,162777,1,2,0:1:0:0:
75,295,162885,1,0,0:0:0:0:
75,295,162993,2,2,B|69:231|82:171|109:119,1,160,10|0,1:0|1:0,1:0:0:0:
248,77,163640,1,0,0:0:0:0:
248,77,163748,1,0,0:0:0:0:
248,77,163856,2,0,B|204:91|160:94,1,80,8|2,1:0|0:1,0:0:0:0:
169,93,164180,1,0,0:0:0:0:
169,93,164288,5,2,1:0:0:0:
384,140,164504,1,2,0:1:0:0:
304,0,164719,1,10,1:0:0:0:
254,248,164935,2,2,B|354:246|323:217|424:219,1,160,2|2,0:1|0:1,1:0:0:0:
250,160,165583,1,8,1:0:0:0:
275,334,165799,1,2,0:1:0:0:
512,157,166014,6,0,B|483:142|452:136|423:137,1,80,2|2,1:0|0:1,0:0:0:0:
321,29,166446,2,0,B|257:31|204:69|177:121,1,160,10|0,1:0|1:0,1:0:0:0:
125,196,167094,1,0,0:0:0:0:
125,196,167201,1,0,0:0:0:0:
125,196,167309,2,0,B|78:191|35:175,1,80,8|0,1:0|0:0,0:0:0:0:
203,214,167741,6,0,B|149:218|106:250|84:294,1,120,0|0,1:0|0:0,0:0:0:0:
100,268,168173,2,0,B|144:281|179:310,1,80,10|0,1:0|0:0,0:0:0:0:
240,367,168604,1,2,1:0:0:0:
274,189,168820,1,2,0:1:0:0:
274,189,168928,1,0,0:0:0:0:
274,189,169036,2,0,B|302:156|340:137,1,80,10|2,1:0|0:1,0:0:0:0:
274,50,169468,6,0,B|317:101|381:121|440:110,1,160,2|10,1:0|1:0,1:0:0:0:
506,173,170115,1,0,0:1:0:0:
506,173,170223,1,0,0:0:0:0:
506,173,170331,1,2,1:0:0:0:
319,309,170547,1,2,1:0:0:0:
512,289,170763,1,10,1:0:0:0:
310,195,170978,1,2,0:1:0:0:
99,248,171194,5,4,1:0:0:0:
99,248,171410,1,4,1:2:0:0:
226,358,171626,1,8,1:0:0:0:
228,342,171734,1,0,0:0:0:0:
227,326,171842,1,4,0:0:0:0:
225,310,171950,1,8,1:0:0:0:
222,294,172058,1,4,1:0:0:0:
196,220,172273,1,4,0:0:0:0:
123,61,172489,6,0,B|69:78|14:82,1,103.999995239258,4|0,1:0|0:0,0:0:0:0:
208,141,172921,6,0,B|251:156|285:183,1,80,6|2,1:0|1:0,0:0:0:0:
307,102,173353,2,2,B|296:189|318:272,1,160,10|0,1:0|1:0,1:0:0:0:
497,194,174000,1,8,1:2:0:0:
492,274,174216,2,0,B|439:280|391:296,1,80,8|0,1:0|0:0,0:0:0:0:
202,372,174648,6,0,B|207:289|188:210,1,160,0|2,1:0|1:0,0:0:0:0:
254,55,175295,1,0,1:1:0:0:
254,55,175403,1,0,0:0:0:0:
254,55,175511,2,0,L|340:66,1,80,2|8,1:0|1:2,0:0:0:0:
443,52,175942,2,0,L|434:132,1,80,10|2,1:0|0:1,0:0:0:0:
470,248,176374,6,0,L|374:234,1,80,2|2,1:0|1:0,0:0:0:0:
277,179,176806,2,2,B|210:169|145:178|87:202,1,160,10|0,1:0|1:0,1:0:0:0:
25,309,177453,1,8,1:2:0:0:
25,309,177561,1,0,0:0:0:0:
25,309,177669,2,0,B|67:324|97:356,1,80,8|2,1:0|0:1,0:0:0:0:
189,273,178101,5,2,1:0:0:0:
9,156,178317,1,2,1:0:0:0:
9,156,178424,1,0,0:0:0:0:
9,156,178532,1,10,1:0:0:0:
262,79,178748,2,2,B|194:83|131:65|79:31,1,160,2|8,1:0|1:2,1:0:0:0:
91,131,179396,1,8,1:0:0:0:
91,131,179612,1,2,0:1:0:0:
261,236,179827,6,0,B|255:276|257:315,1,80,2|2,1:0|1:0,0:0:0:0:
188,181,180259,2,2,B|247:207|310:205|363:182,1,160,10|0,1:0|1:0,1:0:0:0:
412,101,180907,1,8,1:2:0:0:
412,101,181014,1,0,0:0:0:0:
412,101,181122,2,0,L|498:116,1,80,8|0,1:0|0:0,0:0:0:0:
443,335,181554,6,0,L|472:199,1,120,0|0,1:0|0:0,0:0:0:0:
468,217,181986,2,0,B|425:228|390:254,1,80,10|0,1:0|0:0,0:0:0:0:
231,138,182417,2,0,B|251:180|281:215,1,80,2|8,1:0|1:2,0:0:0:0:
217,364,182849,2,0,B|256:339|292:311,1,80,10|2,1:0|1:0,0:0:0:0:
356,97,183281,6,2,B|317:47|254:28|197:40,1,160,2|10,1:0|1:0,1:0:0:0:
43,129,183928,1,0,0:0:0:0:
43,129,184036,1,0,0:0:0:0:
43,129,184144,2,0,B|35:86|43:43,1,80,2|8,1:0|1:2,0:0:0:0:
237,161,184576,1,10,1:0:0:0:
107,239,184791,1,2,1:0:0:0:
257,361,185007,5,4,1:0:0:0:
392,270,185223,5,2,0:0:0:0:
380,280,185331,1,2,0:0:0:0:
367,290,185439,1,0,1:0:0:0:
125,157,185655,5,2,0:0:0:0:
143,172,185763,1,0,1:0:0:0:
160,188,185871,1,2,0:0:0:0:
255,26,186086,5,0,1:0:0:0:
268,63,186194,1,0,0:0:0:0:
266,102,186302,1,4,1:2:0:0:
250,138,186410,1,2,0:0:0:0:
242,177,186518,1,2,0:0:0:0:
245,216,186626,1,2,0:0:0:0:
215,241,186734,6,0,L|299:250,1,80,4|0,1:0|0:0,0:0:0:0:
486,210,187166,2,0,B|430:187|430:187|349:202,1,120,8|0,1:2|0:0,0:0:0:0:
371,197,187597,2,0,L|383:90,1,80,0|8,1:2|1:2,0:0:0:0:
321,32,188029,1,8,1:2:0:0:
321,32,188245,1,0,0:0:0:0:
201,109,188460,6,0,B|148:105|102:81,1,80,0|0,1:0|0:0,0:0:0:0:
28,178,188892,2,0,B|75:170|122:175,1,80,8|0,1:2|0:0,0:0:0:0:
176,244,189324,1,0,1:0:0:0:
285,191,189540,1,8,1:2:0:0:
285,191,189648,1,0,0:0:0:0:
285,191,189755,1,8,1:2:0:0:
303,306,189971,1,4,0:0:0:0:
189,356,190187,6,0,L|103:328,1,80,0|0,1:0|0:0,0:0:0:0:
53,109,190619,2,0,B|60:171|60:171|14:242,1,120,8|0,1:2|0:0,0:0:0:0:
28,219,191050,2,0,L|117:252,1,80,0|8,1:0|1:2,0:0:0:0:
239,301,191482,1,8,1:2:0:0:
47,380,191698,1,0,0:0:0:0:
207,213,191914,6,0,B|203:165|199:118,1,80,2|0,1:0|0:0,0:0:0:0:
321,173,192345,2,0,L|324:133|327:93,1,80,2|0,1:0|0:0,0:0:0:0:
447,205,192777,2,2,B|443:157|439:110,1,80,0|2,1:0|1:0,1:0:0:0:
495,39,193209,1,8,1:2:0:0:
252,31,193424,5,4,0:0:0:0:
252,31,193532,1,0,0:0:0:0:
252,31,193640,2,0,L|145:53,1,80,0|0,1:0|0:0,0:0:0:0:
117,211,194072,2,0,B|86:159|86:159|14:147,1,120,8|0,1:2|0:0,0:0:0:0:
27,149,194504,2,0,L|110:132,1,80,0|8,1:0|1:2,0:0:0:0:
222,197,194935,1,8,1:2:0:0:
222,197,195151,1,0,0:0:0:0:
319,262,195367,6,0,B|321:309|315:353,1,80,0|0,1:0|0:0,0:0:0:0:
230,356,195799,1,8,1:2:0:0:
152,273,196014,1,0,0:0:0:0:
152,273,196122,1,0,0:0:0:0:
152,273,196230,2,0,B|195:281|237:277,1,80,0|8,1:0|1:2,0:0:0:0:
411,216,196662,1,8,1:2:0:0:
411,216,196878,1,4,0:0:0:0:
438,97,197094,6,0,L|431:15,1,80,2|0,1:0|0:0,0:0:0:0:
223,126,197525,2,2,B|277:98|277:98|338:104,1,120,8|0,1:0|0:1,1:0:0:0:
335,104,197957,2,0,L|330:204,1,80,0|10,1:0|1:1,0:0:0:0:
478,280,198389,1,8,1:0:0:0:
352,360,198604,1,2,0:1:0:0:
228,294,198820,6,2,L|234:211,1,80,0|8,1:0|1:0,1:0:0:0:
105,239,199252,1,10,1:0:0:0:
70,143,199468,1,0,0:0:0:0:
70,143,199576,1,10,1:0:0:0:
70,143,199683,1,0,0:0:0:0:
464,30,199899,6,0,B|485:78|485:78|473:149,1,103.999995239258,4|0,1:2|0:0,0:0:0:0:
340,200,200331,6,0,L|372:196,2,26.6666666666667,2|2|2,0:0|0:0|0:0,0:0:0:0:
323,225,200547,2,0,L|313:128,1,80,0|0,1:0|0:0,0:0:0:0:
188,27,200978,2,0,B|216:68|227:114|224:159,1,120,8|0,1:0|0:0,0:0:0:0:
224,139,201410,2,0,B|182:161|136:164,1,80,0|8,1:0|1:0,0:0:0:0:
45,109,201842,1,8,1:0:0:0:
45,109,202058,1,0,0:0:0:0:
167,258,202273,6,0,B|201:288|226:324,1,80,0|0,1:0|0:0,0:0:0:0:
262,381,202705,1,0,1:0:0:0:
300,177,202921,1,0,0:0:0:0:
300,177,203029,1,8,1:0:0:0:
300,177,203137,2,0,B|320:140|354:114,1,80,0|8,1:0|1:0,0:0:0:0:
429,108,203568,2,0,B|384:100|350:69|335:30,1,120,8|0,1:0|0:0,0:0:0:0:
337,36,204000,6,0,B|382:27|424:11,1,80,0|0,1:0|0:0,0:0:0:0:
272,98,204432,2,0,B|233:84|194:75,1,80,8|0,1:0|0:0,0:0:0:0:
195,75,204755,1,0,0:0:0:0:
195,75,204863,1,0,1:0:0:0:
99,57,205079,1,10,1:0:0:0:
66,158,205295,1,8,1:0:0:0:
177,189,205511,1,2,1:0:0:0:
384,301,205727,5,2,1:0:0:0:
218,276,205942,1,0,0:0:0:0:
305,218,206158,2,0,B|301:285|305:351,1,120,10|10,1:0|1:0,1:0:0:0:
304,337,206590,2,0,B|255:342|207:351,1,80,0|10,1:0|1:0,0:0:0:0:
406,208,207022,1,8,1:0:0:0:
486,295,207237,1,4,1:2:0:0:
384,301,207453,5,0,1:0:0:0:
503,169,207669,1,0,0:0:0:0:
298,265,207885,2,0,B|225:262|161:227,1,120,10|0,1:0|0:0,0:0:0:0:
181,237,208317,2,0,L|202:151,1,80,0|8,1:0|1:0,0:0:0:0:
199,159,208640,1,0,0:0:0:0:
199,159,208748,1,10,1:0:0:0:
270,376,208964,1,2,1:0:0:0:
21,282,209180,6,0,B|67:269|114:271,1,80,0|2,1:0|0:1,0:0:0:0:
301,180,209612,2,0,B|301:100|272:27,1,120,10|0,1:0|0:0,0:0:0:0:
269,33,210043,1,0,1:0:0:0:
85,133,210259,1,10,1:0:0:0:
269,33,210475,1,10,1:0:0:0:
85,133,210691,1,8,1:0:0:0:
245,235,210907,6,0,B|268:269|275:309,1,80,2|0,1:0|0:0,0:0:0:0:
289,380,211338,1,10,1:0:0:0:
335,176,211554,1,2,1:0:0:0:
335,176,211662,1,0,0:0:0:0:
335,176,211770,2,0,B|282:171|233:155,1,80,0|10,1:0|1:0,0:0:0:0:
256,161,212094,1,0,0:0:0:0:
256,161,212201,1,8,1:0:0:0:
189,127,212417,1,2,1:0:0:0:
23,188,212633,5,4,1:0:0:0:
57,281,212849,1,4,1:2:0:0:
210,38,213065,5,4,1:0:0:0:
226,221,213281,1,4,1:2:0:0:
394,23,213496,5,4,1:0:0:0:
359,308,213712,1,4,1:2:0:0:
503,122,213928,5,8,1:2:0:0:
503,122,214036,1,8,1:0:0:0:
466,377,214252,1,8,1:0:0:0:
466,377,214360,1,4,1:0:0:0:
443,300,214576,5,2,0:0:0:0:
394,244,215007,1,2,0:0:0:0:
327,215,215439,1,2,0:0:0:0:
251,211,215871,1,2,0:0:0:0:
58,220,216302,5,2,0:0:0:0:
107,164,216733,1,2,0:0:0:0:
174,135,217165,1,2,0:0:0:0:
250,131,217597,1,2,0:0:0:0:
463,128,218029,5,2,0:0:0:0:
414,72,218460,1,2,0:0:0:0:
347,43,218892,1,2,0:0:0:0:
271,39,219324,1,2,0:0:0:0:
256,192,219755,5,2,0:0:0:0:
256,192,220187,1,2,0:0:0:0:
256,192,220619,1,2,0:0:0:0:
256,192,221050,1,2,0:0:0:0:
342,236,221482,5,2,0:0:0:0:
332,156,221914,1,2,0:0:0:0:
264,113,222345,1,2,0:0:0:0:
193,150,222777,1,2,0:0:0:0:
201,229,223209,5,2,0:0:0:0:
269,269,223640,1,2,0:0:0:0:
342,236,224072,1,2,0:0:0:0:
332,156,224504,1,2,0:0:0:0:
136,92,224935,5,2,0:0:0:0:
81,171,225367,1,2,0:0:0:0:
110,262,225799,1,2,0:0:0:0:
197,301,226230,1,2,0:0:0:0:
381,255,226662,5,2,0:0:0:0:
436,176,227094,2,0,L|395:169,1,40,2|2,0:0|0:0,0:0:0:0:
243,35,227525,2,0,L|284:42,1,40,4|2,0:0|0:0,0:0:0:0:
374,62,227957,1,2,0:0:0:0:
216,167,228173,5,0,1:0:0:0:
271,223,228389,1,2,0:0:0:0:
274,296,228604,1,8,1:2:0:0:
227,351,228820,2,0,B|216:359|205:365,4,20,0|0|0|0|0,0:0|1:0|0:0|1:0|0:0,0:0:0:0:
139,357,229468,1,8,1:2:0:0:
139,357,229683,1,0,0:0:0:0:
68,217,229899,5,0,1:0:0:0:
100,146,230115,1,2,0:0:0:0:
171,116,230330,1,8,1:2:0:0:
243,141,230546,2,0,B|253:148|263:156,4,20,0|0|0|0|0,0:0|1:0|0:0|1:0|0:0,0:0:0:0:
302,222,231194,1,8,1:2:0:0:
302,222,231409,1,0,1:2:0:0:
450,256,231626,5,0,1:0:0:0:
419,329,231842,1,2,0:0:0:0:
347,352,232057,1,8,1:2:0:0:
274,333,232273,2,0,B|263:325|253:317,4,20,0|0|0|0|0,0:0|1:0|0:0|1:0|0:0,0:0:0:0:
216,262,232921,1,8,1:2:0:0:
216,262,233136,1,0,0:0:0:0:
438,87,233353,5,0,1:0:0:0:
443,174,233568,1,2,0:0:0:0:
297,116,233784,1,8,1:2:0:0:
359,61,234000,1,2,0:0:0:0:
359,61,234108,1,8,1:2:0:0:
359,61,234216,1,0,0:0:0:0:
381,229,234432,1,8,1:2:0:0:
301,198,234648,6,0,B|269:190|244:172|226:148,1,80,4|0,1:2|0:0,0:0:0:0:
182,69,235079,5,0,1:0:0:0:
108,46,235295,1,2,0:0:0:0:
36,75,235511,1,8,1:2:0:0:
12,148,235727,2,0,L|36:157,4,23.9999992675781,0|0|0|0|0,0:0|1:0|0:0|1:0|0:0,0:0:0:0:
109,189,236374,1,8,1:2:0:0:
109,189,236590,1,0,0:0:0:0:
263,178,236806,5,0,1:0:0:0:
328,219,237022,1,2,0:0:0:0:
352,293,237238,1,8,1:2:0:0:
311,359,237454,2,0,L|288:346,4,23.9999992675781,0|0|0|0|0,0:0|1:0|0:0|1:0|0:0,0:0:0:0:
217,311,238101,1,8,1:2:0:0:
217,311,238317,1,0,1:0:0:0:
144,95,238532,5,0,1:0:0:0:
217,71,238748,1,2,0:0:0:0:
288,98,238964,1,8,1:2:0:0:
359,127,239180,2,0,L|386:114,4,23.9999992675781,0|0|0|0|0,0:0|1:0|0:0|1:0|0:0,0:0:0:0:
428,180,239827,1,8,1:2:0:0:
428,180,240043,1,0,0:0:0:0:
168,290,240259,5,0,1:0:0:0:
268,333,240475,1,2,0:0:0:0:
336,251,240691,1,8,1:2:0:0:
232,200,240907,1,4,0:0:0:0:
232,200,241014,1,0,0:0:0:0:
232,200,241122,6,2,B|145:194|80:124|76:42,1,207.999990478516,0|8,0:0|1:2,1:0:0:0:
81,76,241770,1,2,0:0:0:0:
38,217,241986,6,0,B|35:248|42:278,1,60.0000022888184,4|2,1:0|0:0,0:0:0:0:
90,353,242417,1,8,1:0:0:0:
171,309,242633,1,0,0:0:0:0:
192,298,242741,1,2,0:0:0:0:
215,293,242849,1,0,0:0:0:0:
239,292,242957,1,2,0:0:0:0:
262,294,243065,1,8,1:0:0:0:
337,328,243281,1,8,1:0:0:0:
410,375,243496,6,0,B|427:325|426:274|410:229,1,120.000004577637,2|2,0:1|0:1,0:0:0:0:
368,181,244144,2,0,B|371:148|376:115,1,60.0000022888184,8|2,1:0|0:1,0:0:0:0:
381,98,244468,1,0,0:0:0:0:
390,76,244576,1,2,0:1:0:0:
336,20,244791,2,2,B|291:35|262:75|258:119,1,120.000004577637,2|0,0:1|0:0,1:0:0:0:
174,139,245439,6,0,B|138:149|101:149,1,60.0000022888184,0|2,1:0|0:0,0:0:0:0:
30,184,245871,1,8,1:0:0:0:
108,243,246086,1,0,0:0:0:0:
130,235,246194,1,2,0:0:0:0:
153,232,246302,1,0,0:0:0:0:
177,232,246410,1,2,0:0:0:0:
200,235,246518,1,8,1:0:0:0:
276,260,246734,1,8,1:0:0:0:
357,299,246950,6,0,L|346:154,1,120.000004577637,2|2,0:1|0:1,0:0:0:0:
465,61,247597,2,2,L|474:166,1,90.0000034332277,8|0,1:0|0:0,1:0:0:0:
472,150,248029,2,0,B|455:180|452:214,1,60.0000022888184,2|2,0:1|0:1,0:0:0:0:
440,285,248460,1,10,1:0:0:0:
281,362,248676,6,0,B|211:342|141:344,1,120.000004577637,2|2,0:1|0:0,0:1:0:0:
126,249,249324,2,0,L|57:270,1,60.0000022888184,8|0,1:0|0:0,0:0:0:0:
68,266,249648,1,2,0:0:0:0:
68,266,249755,1,0,0:0:0:0:
28,197,249971,1,8,1:0:0:0:
106,159,250187,1,8,1:0:0:0:
203,201,250403,6,0,B|269:206|331:191,1,120.000004577637,2|2,0:1|0:1,0:1:0:0:
382,138,251050,1,8,1:0:0:0:
465,163,251266,1,2,0:1:0:0:
470,139,251374,1,0,0:0:0:0:
468,115,251482,1,2,0:1:0:0:
463,38,251698,2,2,B|399:41|339:25,1,120.000004577637,2|0,0:1|0:0,1:0:0:0:
208,126,252345,6,0,L|143:119,1,60.0000022888184,0|2,1:0|0:0,0:0:0:0:
71,136,252777,1,8,1:0:0:0:
40,210,252993,1,0,0:0:0:0:
66,214,253101,1,2,0:0:0:0:
91,223,253209,1,0,0:0:0:0:
112,239,253317,1,2,0:0:0:0:
126,261,253424,1,8,1:0:0:0:
163,331,253640,1,8,1:0:0:0:
247,234,253856,6,0,B|285:204|331:190|375:191,1,120.000004577637,2|2,0:1|0:1,0:1:0:0:
455,335,254504,2,0,B|403:329|358:304,1,90.0000034332277,10|0,1:0|0:0,0:0:0:0:
369,309,254935,2,0,B|395:290|423:276,1,60.0000022888184,2|2,0:1|0:1,0:0:0:0:
494,240,255367,1,10,1:0:0:0:
254,139,255583,6,0,B|197:116|157:70|139:17,1,160,6|2,1:0|0:0,1:0:0:0:
82,106,256230,5,8,1:0:0:0:
82,106,256554,1,8,0:1:0:0:
82,106,256662,2,0,B|57:121|35:140,1,47.9999985351563,8|2,1:0|0:0,0:0:0:0:
118,211,257094,1,0,1:0:0:0:
88,326,257309,6,0,B|69:303|44:288|17:281,1,71.9999978027344,8|0,1:0|0:0,0:0:0:0:
30,285,257741,2,0,B|40:261|41:235,1,47.9999985351563,2|8,0:1|1:0,0:0:0:0:
28,160,258173,1,2,0:1:0:0:
202,164,258389,2,0,B|194:192|188:220,1,47.9999985351563,2|2,0:1|0:1,0:0:0:0:
213,287,258820,1,10,1:0:0:0:
319,209,259036,6,0,B|312:156|293:107,1,95.9999970703126,2|2,0:1|0:0,0:0:0:0:
355,31,259683,1,8,1:0:0:0:
355,31,260007,1,8,0:1:0:0:
355,31,260115,2,0,B|383:38|410:40,1,47.9999985351563,8|2,1:0|0:0,0:0:0:0:
476,101,260547,1,8,1:0:0:0:
485,187,260763,6,0,B|450:233|438:288,1,95.9999970703126,10|2,1:0|0:1,0:0:0:0:
390,343,261410,2,0,B|381:298|351:262,1,71.9999978027344,10|0,1:0|0:0,0:0:0:0:
363,277,261842,2,0,L|317:293,1,47.9999985351563,2|2,0:1|0:1,0:0:0:0:
222,331,262273,1,10,1:0:0:0:
113,236,262489,6,0,B|149:254|187:258|223:249,1,95.9999970703126,2|2,0:1|0:0,0:0:0:0:
299,193,263137,1,8,1:0:0:0:
299,193,263460,1,8,0:1:0:0:
299,193,263568,2,0,B|325:183|351:178,1,47.9999985351563,8|2,1:0|0:0,0:0:0:0:
424,175,264000,1,8,1:0:0:0:
496,124,264216,6,0,B|484:70|463:19,1,95.9999970703126,8|2,1:0|0:1,0:0:0:0:
391,62,264863,1,8,1:0:0:0:
391,62,265187,1,0,0:1:0:0:
391,62,265295,2,0,B|364:70|338:79,1,47.9999985351563,2|2,0:1|0:1,0:0:0:0:
270,94,265727,1,10,1:0:0:0:
196,51,265942,2,0,B|140:51|88:69,1,95.9999970703126,2|2,0:1|0:0,0:0:0:0:
45,112,266590,5,8,1:0:0:0:
45,112,266914,1,8,0:1:0:0:
45,112,267022,2,0,B|56:134|59:159,1,40,8|2,1:0|0:0,0:0:0:0:
71,222,267453,1,8,1:0:0:0:
147,200,267669,6,0,B|140:248|145:295,1,80,10|2,1:0|0:0,0:0:0:0:
204,338,268317,2,0,B|238:330|272:331,1,60,10|0,1:0|0:0,0:0:0:0:
263,330,268748,2,0,B|260:304|259:277,1,40,2|2,0:1|0:1,0:0:0:0:
276,212,269180,1,10,1:0:0:0:
363,251,269396,6,0,B|411:259|458:246,1,80,2|2,0:1|0:1,0:0:0:0:
166,161,270259,6,0,B|118:153|71:166,1,80,2|2,0:1|0:1,0:0:0:0:
265,35,271122,1,2,0:1:0:0:
268,355,271338,5,4,1:0:0:0:
379,269,271554,5,8,1:2:0:0:
379,269,271662,1,2,0:0:0:0:
379,269,271770,2,0,L|341:251,2,40,2|8|2,0:0|1:2|0:0,0:0:0:0:
153,187,272201,5,8,1:2:0:0:
153,187,272309,1,2,0:0:0:0:
153,187,272417,2,0,L|206:166,1,51.999997619629,4|0,1:2|0:0,0:0:0:0:
292,29,272633,6,2,B|303:83|303:188|229:99|226:218|248:289,1,240,2|0,1:0|1:0,1:0:0:0:
201,324,273065,6,0,B|145:333|99:364,1,88.000002685547,4|2,1:0|1:0,0:0:0:0:
0,223,273496,1,0,1:0:0:0:
86,66,273712,2,0,B|134:92|160:141|159:190,1,132.00000402832,2|0,1:0|2:0,0:0:0:0:
157,169,274144,2,0,L|252:194,1,88.000002685547,2|0,1:0|1:0,0:0:0:0:
493,310,274576,6,0,B|517:245|505:176|469:124,1,176.000005371094,2|2,1:0|1:0,0:0:0:0:
449,121,275115,1,0,2:1:0:0:
413,116,275223,2,0,B|363:127|316:145,1,88.000002685547,0|2,1:0|1:0,0:0:0:0:
168,334,275655,2,0,B|203:299|221:254,1,88.000002685547,0|2,1:0|1:0,0:0:0:0:
147,90,276086,1,0,1:0:0:0:
147,90,276302,6,0,B|228:141|281:220,1,176.000005371094,2|2,1:0|1:0,0:0:0:0:
299,241,276842,1,0,2:0:0:0:
320,274,276950,2,0,B|366:291|410:312,1,88.000002685547,0|2,0:0|0:0,0:0:0:0:
480,331,277381,1,0,0:0:0:0:
471,141,277597,1,2,0:0:0:0:
471,141,277705,1,0,2:0:0:0:
471,141,277813,2,0,L|430:158|389:175,1,88.000002685547,0|2,0:0|0:0,0:0:0:0:
267,339,278245,5,0,0:2:0:0:
125,224,278460,2,0,B|168:243|211:255,1,88.000002685547,2|0,0:0|0:2,0:0:0:0:
93,310,278892,2,2,B|50:329|6:341,1,88.000002685547,2|0,0:0|0:0,0:0:0:0:
33,226,279324,2,0,B|44:156|75:94|118:45,1,176.000005371094,2|2,0:0|0:0,0:0:0:0:
162,27,279971,1,0,0:0:0:0:
332,142,280187,6,0,B|393:172|439:221,1,132.00000402832,2|0,0:0|2:0,0:0:0:0:
437,219,280619,2,0,B|404:254|380:294,1,88.000002685547,2|0,0:0|0:0,0:0:0:0:
249,192,281050,2,0,B|245:126|215:69|170:29,1,176.000005371094,2|2,0:0|0:0,0:0:0:0:
99,43,281698,1,0,0:0:0:0:
34,304,281914,6,0,B|100:277|156:235,1,132.00000402832,2|0,0:0|2:0,0:0:0:0:
149,240,282345,2,0,L|168:333,1,88.000002685547,2|0,0:0|0:0,0:0:0:0:
263,273,282777,2,0,B|192:265|141:206|138:139,1,176.000005371094,2|2,0:0|0:0,0:0:0:0:
134,87,283424,1,0,0:2:0:0:
303,37,283640,6,0,B|378:25|452:37,1,132.00000402832,2|0,0:0|2:0,0:0:0:0:
434,34,284072,2,0,B|422:82|427:131,1,88.000002685547,2|0,0:0|0:2,0:0:0:0:
331,199,284504,1,2,0:0:0:0:
331,199,284612,1,0,2:0:0:0:
331,199,284719,1,0,0:0:0:0:
419,294,284935,1,2,0:0:0:0:
509,199,285151,1,0,0:2:0:0:
250,351,285367,6,0,B|218:189|313:253|272:56,1,287.999991210938,2|2,0:0|2:1,0:0:0:0:
159,26,286878,6,0,L|62:47,1,88.000002685547,4|2,1:0|0:0,0:0:0:0:
33,38,287201,1,0,2:0:0:0:
3,24,287309,2,0,B|-5:55|-3:86|8:114,1,88.000002685547,8|2,0:0|0:0,0:0:0:0:
96,142,287741,1,0,0:0:0:0:
196,166,287957,2,0,B|246:149|296:141,1,88.000002685547,2|8,0:0|0:0,0:0:0:0:
0,226,288389,6,0,B|55:218|107:228|153:250,1,132.00000402832,2|0,0:0|2:0,0:0:0:0:
129,240,288820,2,0,B|81:261|46:299,1,88.000002685547,2|8,0:0|0:0,0:0:0:0:
270,144,289252,2,0,B|287:93|286:40,1,88.000002685547,2|0,0:0|0:0,0:0:0:0:
328,331,289683,2,0,B|373:358|425:364,1,88.000002685547,2|8,0:0|0:0,0:0:0:0:
488,113,290115,6,0,B|441:127|409:167|402:212,1,132.00000402832,2|0,0:0|2:0,0:0:0:0:
403,205,290547,2,2,L|501:222,1,88.000002685547,2|8,0:0|0:0,0:0:0:0:
353,99,290978,2,0,L|252:120,1,88.000002685547,2|0,0:0|0:0,0:0:0:0:
169,52,291410,2,0,B|162:87|168:121|182:150,1,88.000002685547,2|8,0:0|0:0,0:0:0:0:
30,311,291842,5,2,0:0:0:0:
30,311,291950,1,0,2:0:0:0:
30,311,292058,2,0,B|68:286|99:254,1,88.000002685547,0|2,0:0|0:0,0:0:0:0:
117,237,292381,1,0,2:0:0:0:
136,218,292489,2,0,L|216:263,1,88.000002685547,8|2,0:0|0:0,0:0:0:0:
327,197,292921,1,0,0:0:0:0:
214,369,293137,1,2,0:0:0:0:
214,369,293245,1,0,2:0:0:0:
214,369,293353,1,8,0:0:0:0:
70,156,293568,6,0,B|128:148|174:110|196:61,1,132.00000402832,2|0,0:0|2:0,0:0:0:0:
179,89,294000,2,0,B|123:78|69:62,1,88.000002685547,2|8,0:0|0:0,0:0:0:0:
240,252,294432,2,0,B|244:200|263:154,1,88.000002685547,2|0,0:0|0:0,0:0:0:0:
50,286,294863,2,2,B|102:293|152:306,1,88.000002685547,2|8,0:0|0:0,0:0:0:0:
1,62,295295,6,0,B|23:136|13:212,1,132.00000402832,2|0,0:0|2:0,0:0:0:0:
16,192,295727,2,0,B|60:180|104:184,1,88.000002685547,2|8,0:0|0:0,0:0:0:0:
229,58,296158,2,0,B|227:107|232:154,1,88.000002685547,2|0,0:0|0:0,0:0:0:0:
364,269,296590,2,0,B|309:270|255:274,1,88.000002685547,2|8,0:0|0:0,0:0:0:0:
150,364,297022,5,2,0:0:0:0:
150,364,297130,1,0,2:0:0:0:
150,364,297237,2,0,L|152:311|150:271,1,88.000002685547,0|2,0:0|0:0,0:0:0:0:
150,249,297561,1,0,2:0:0:0:
146,222,297669,2,0,L|239:209,1,88.000002685547,8|2,0:0|0:0,0:0:0:0:
330,100,298101,1,0,0:0:0:0:
500,215,298317,2,0,L|400:228,1,88.000002685547,2|8,0:0|0:0,0:0:0:0:
172,109,298748,6,0,B|120:112|73:132|37:163,1,132.00000402832,2|0,0:0|2:0,0:0:0:0:
49,152,299180,2,0,B|82:188|98:233,1,88.000002685547,2|4,0:0|0:2,0:0:0:0:
126,297,299612,1,2,0:0:0:0:
260,46,299827,1,4,1:0:0:0:
481,334,300043,6,0,B|437:348|392:347|352:335,1,120.000004577637,12|0,1:2|1:0,0:0:0:0:
336,314,300367,1,2,1:2:0:0:
303,299,300475,1,0,1:0:0:0:
267,295,300583,1,2,1:2:0:0:
231,304,300691,6,0,L|219:202,1,80,4|2,1:0|0:0,0:0:0:0:
205,207,301014,1,0,0:0:0:0:
188,189,301122,1,8,0:0:0:0:
61,135,301338,1,2,0:0:0:0:
82,123,301446,1,0,0:0:0:0:
104,113,301554,2,0,L|187:59,1,80,0|2,0:0|0:0,0:0:0:0:
254,24,301986,1,8,0:0:0:0:
407,89,302201,5,2,0:0:0:0:
407,89,302309,1,0,0:0:0:0:
407,89,302417,2,0,B|378:112|360:143|353:176,1,80,0|2,0:0|0:0,0:0:0:0:
339,164,302741,1,0,0:0:0:0:
320,179,302849,2,0,L|401:231,1,80,8|2,0:0|0:0,0:0:0:0:
394,346,303281,1,0,0:0:0:0:
506,222,303496,1,10,0:0:0:0:
506,222,303604,1,0,0:0:0:0:
506,222,303712,1,10,0:0:0:0:
328,301,303928,1,2,0:0:0:0:
250,217,304144,6,0,B|208:183|157:166,1,80,0|2,0:0|0:0,0:0:0:0:
181,175,304468,1,0,0:0:0:0:
181,175,304576,1,8,0:0:0:0:
15,265,304791,1,2,0:0:0:0:
14,265,304899,1,0,0:0:0:0:
14,265,305008,2,0,B|45:291|82:305,1,80,0|2,0:0|0:0,0:0:0:0:
167,348,305439,1,8,0:0:0:0:
75,132,305655,5,2,0:0:0:0:
75,132,305763,1,0,0:0:0:0:
75,132,305871,2,0,B|96:94|127:64,1,80,0|2,0:0|0:0,0:0:0:0:
117,44,306194,1,0,0:0:0:0:
112,20,306302,2,0,B|155:39|200:47,1,80,8|2,0:0|0:0,0:0:0:0:
340,108,306734,1,0,0:0:0:0:
282,198,306950,1,10,0:0:0:0:
257,15,307166,1,8,0:0:0:0:
450,71,307381,1,2,0:0:0:0:
450,71,307489,1,0,0:0:0:0:
450,71,307597,6,0,B|469:110|470:153,1,80,0|2,0:0|0:0,0:0:0:0:
455,167,307921,1,0,0:0:0:0:
438,184,308029,2,0,L|341:171,1,80,8|2,0:0|0:0,0:0:0:0:
471,263,308460,1,0,0:0:0:0:
381,271,308676,2,0,L|286:275,1,80,2|8,0:0|0:0,0:0:0:0:
228,358,309108,6,0,B|205:311|203:260|219:215,1,120,2|0,0:0|2:0,0:0:0:0:
211,241,309540,2,0,B|165:224|118:224,1,80,2|8,0:0|0:0,0:0:0:0:
20,104,309971,2,0,B|65:95|110:96,1,80,2|0,0:0|0:0,0:0:0:0:
165,32,310403,1,10,0:0:0:0:
165,32,310511,1,0,0:0:0:0:
165,32,310619,1,8,0:0:0:0:
339,119,310835,1,2,0:0:0:0:
241,25,311050,6,0,B|245:70|241:114,1,80,0|2,0:0|0:0,0:0:0:0:
241,129,311374,1,0,0:0:0:0:
238,152,311482,2,0,B|270:178|299:206,1,80,8|2,0:0|0:0,0:0:0:0:
390,238,311914,2,0,B|431:227|472:227,1,80,0|2,0:0|0:0,0:0:0:0:
468,227,312237,1,0,0:0:0:0:
468,227,312345,1,8,0:0:0:0:
362,124,312561,5,2,0:0:0:0:
303,303,312777,2,0,B|262:326|216:330,1,80,4|2,0:0|0:0,0:0:0:0:
227,328,313101,1,0,0:0:0:0:
227,328,313209,1,4,0:2:0:0:
377,323,313424,2,2,B|331:297|302:252|294:204,1,120,6|0,0:0|2:0,0:0:0:0:
301,232,313856,6,0,B|356:217|403:188,1,103.999995239258,12|10,1:2|0:0,0:0:0:0:
330,95,314288,5,2,0:0:0:0:
330,95,314396,1,0,0:0:0:0:
330,95,314504,2,0,B|296:70|261:50,1,80,4|2,0:0|0:0,0:0:0:0:
184,103,314935,1,8,0:0:0:0:
103,37,315151,2,0,B|147:15|195:10,1,80,2|0,0:0|0:0,0:0:0:0:
112,189,315583,2,0,B|81:152|69:105,1,80,2|8,0:0|0:0,0:0:0:0:
272,169,316014,2,0,B|233:192|191:206,1,80,2|0,0:0|0:0,0:0:0:0:
369,269,316446,5,2,0:0:0:0:
369,269,316554,1,0,0:0:0:0:
369,269,316662,2,0,B|354:228|346:186,1,80,8|10,0:0|0:0,0:0:0:0:
212,290,317094,2,0,B|260:315|304:343,1,80,0|10,0:0|0:0,0:0:0:0:
352,375,317525,1,8,0:0:0:0:
425,146,317741,6,0,B|427:78|401:16,1,120,2|0,0:0|2:0,0:0:0:0:
405,28,318173,2,0,B|450:24|494:17,1,80,2|8,0:0|0:0,0:0:0:0:
334,91,318604,2,0,B|285:89|238:98,1,80,2|0,0:0|0:0,0:0:0:0:
225,214,319036,1,2,0:0:0:0:
225,214,319144,1,0,0:0:0:0:
225,214,319252,2,0,B|182:195|137:190,1,80,8|2,0:0|0:0,0:0:0:0:
130,175,319576,1,0,0:0:0:0:
116,155,319683,6,0,L|18:174,1,80,0|10,0:0|0:0,0:0:0:0:
166,290,320115,1,10,0:0:0:0:
217,38,320331,1,2,0:0:0:0:
217,38,320439,1,0,0:0:0:0:
217,38,320547,2,0,L|307:52,1,80,2|10,0:0|0:0,0:0:0:0:
333,221,320978,1,8,0:0:0:0:
490,135,321194,1,2,0:0:0:0:
490,135,321302,1,0,0:0:0:0:
490,135,321410,6,0,B|444:104|390:93,1,80,4|2,0:0|0:0,0:0:0:0:
405,79,321734,1,0,0:0:0:0:
396,56,321842,2,0,L|365:139,1,80,12|2,0:0|0:0,0:0:0:0:
368,130,322166,1,0,0:0:0:0:
368,130,322273,1,4,0:0:0:0:
457,249,322489,1,2,0:0:0:0:
457,249,322597,1,0,0:0:0:0:
457,249,322705,1,12,0:0:0:0:
323,308,322921,1,2,0:0:0:0:
323,308,323029,1,0,0:0:0:0:
323,308,323137,1,4,0:0:0:0:
236,186,323353,1,2,0:0:0:0:
236,186,323460,1,0,0:0:0:0:
236,186,323568,1,14,0:0:0:0:
435,342,323784,5,10,0:0:0:0:
435,342,323892,1,0,0:0:0:0:
435,342,324000,1,6,0:0:0:0:
153,359,324216,1,2,0:0:0:0:
153,359,324324,1,0,0:0:0:0:
153,359,324432,1,14,0:0:0:0:
376,216,324648,1,2,0:0:0:0:
376,216,324755,1,0,0:0:0:0:
376,216,324863,1,4,0:0:0:0:
376,216,326590,5,12,0:0:0:0:
148,106,326806,1,0,0:2:0:0:
148,106,326914,1,8,0:0:0:0:
148,106,327022,1,0,0:0:0:0:
319,22,327237,1,8,0:0:0:0:
319,22,327345,1,0,0:0:0:0:
319,22,327453,1,2,0:0:0:0:
192,322,327669,6,0,L|79:289,1,103.999995239258,4|2,1:2|0:0,0:0:0:0:
92,292,327993,1,2,0:0:0:0:
92,292,328101,1,2,0:0:0:0:
92,292,328209,1,2,0:0:0:0:
92,292,328317,1,4,1:0:0:0:
